LEGALFREETOAIR.COM
December 11, 2019, 12:08:20 PM *
Welcome, Guest. Please login or register.

Login with username, password and session length
News: BLACK FRIDAY DEALS @ HYPERMEGASAT.COM  >>> http://legalfreetoair.com/index.php?topic=50699.0
 
   Home   Help Login Register  
Pages: [1]   Go Down
  Print  
Author Topic: Mood (Muzak) Radio Mux ITC on SES 3 103.0W Ku  (Read 1708 times)
0 Members and 1 Guest are viewing this topic.
Hyper
ADMIN
Administrator
LFTA Legend
*****
Offline Offline

Posts: 15434


They call me Heat Miser


« on: June 06, 2019, 11:12:21 PM »

Muzak Radio Mux ITC on SES 3 103.0W Ku

TP 12145 V 20000

DVB-S QPSK 3/4

I know this MUX has been here for a while.

This post is basically a place to park this info for future reference.


Channel Name       Audio PID

50's and 60's Hits    7496
70's Hits                 7497
Songbook               7498
80's Hits                 7499
Country Holiday      7500
Adult Alternative      7501
Cashmere               7502
Unforgettable          7503
City Lights              7504
The Beach               7505
Swing Kings            7506
Lucille                    7507
7890                      7508
Ensemble               7509
Summer Fun          7510
Rock Show             7511
Roadhouse             7512
Country Gold          7513
Nashville USA         7514
Country Music         7515
Belissimo                7516
The Light                7517
Plaza                      7518
Impressions            7519
Summer Fun           7520
Easy Instruments    7521
Environmental         7522
Frequency               7523
Expressions            7524
Ambrosia                7525
FM-1                      7526
Hit Line                  7527
Hot FM                   7528
Strobe                   7529
Little Italy              7530
Jazz Traditions        7531
Jukebox Gold          7533
Ultra Hip Holiday     7534
La Musica               7535
Intermezzo             7536
Love Songs            7537
Feedback               7538
Metro                    7539
Latino Navidad-2    7540
Moodscapes           7541
Aura                      7542
Shine                    7543
The Party Playlist    7544
NU Jazz                  7545
Piano and Guitar     7546
The Café                7547
Mo' Soul                7548
Reflections            7549
empty                   7550
Toned                   7551
Tropical Breezes    7552
The Boulevard       7553
Concrete Beats       7554
Viva Mariachi          7555
Shoprite                7556
Nu Lounge             7557
La Musica              7558
Hobby Lobby         7559
Don Pablos            7560
Price Shopper        7561
RL Music Program   7562
Quebicos               7563
Stater Brothers     7564
Popeyes Radio       7565
Holiday Pop          7566
Commercials         7567
The Circuit            7568
Perimeter              7569
The New Wave       7570
Varsity                   7571
Stylus                    7572
empty                    7573
Curves 4 Women     7574
Fameous Footware    7575
Mens Wearhouse      7576
Pet Smart                7577
Radio DWS               7578
FM  DOS                   7579
90s Hits                  7580
Sports Authority       7581
Costs Plus               7582
Soulful Holiday        7583
Uptown                   7584
Exxon Mobile           7585
Moes SW Grill          7586
McDonalds              7587
Office Max              7588
Chase                    7589
Sprint                     7590
Chase Main             7591
Promo 3                  7592
Promo 4                  7593
Ultra                       7594
empty                     7595




« Last Edit: June 20, 2019, 08:21:27 PM by Hyper » Logged

My son Evan, taken from his family and friends on March 26, 2010 at the age of 15. We love you and miss you Evan. We will see you again soon in heaven. I miss you son. You were the best son a dad could have. I am so proud of you. Save a place for me.
telescope
New Member
*
Offline Offline

Posts: 14


« Reply #1 on: June 17, 2019, 02:55:19 PM »

If you search for "What's playing now mood muzak," there's a website that lists recently played songs.
Only problem is that some of the channels listed there aren't on this list, like 90's Hits, or Adult Alternative.
Any idea if those missing channels are up there somewhere?
Logged
Hyper
ADMIN
Administrator
LFTA Legend
*****
Offline Offline

Posts: 15434


They call me Heat Miser


« Reply #2 on: June 17, 2019, 07:53:45 PM »

Hello telescope!

You mean this website correct?

Code:
http://muzakwpn.muzak.com/#

Great question. I never knew this website existed until now. But it seems to be up to date if you look at it. So that makes me think you are 100% right and this list is not exactly 100% correct and up to date. Problem is, i have no clue how to find out the pid info for 90's Hits, or Adult Alternative. So to answer your question - "Any idea if those missing channels are up there somewhere?" - I have no clue, and dont know how to find out?

Maybe some one else has the answers for us.


Logged

My son Evan, taken from his family and friends on March 26, 2010 at the age of 15. We love you and miss you Evan. We will see you again soon in heaven. I miss you son. You were the best son a dad could have. I am so proud of you. Save a place for me.
Keith Brannen
Hero Member
****
Online Online

Posts: 191



« Reply #3 on: June 17, 2019, 09:57:00 PM »

90s Hits is 7580 (was Sprints Main in your above list).
Adult Alternative is 7501 (was Backpages in your above list).

Searching on google will find more update lists at other FTA sites.

I have been using the Mood (formerly muzak) website for quite a while.
« Last Edit: June 17, 2019, 09:58:50 PM by Keith Brannen » Logged

AZBox Ultra HD + Amiko Mini HD265 + EMP Centauri 8x1 + 4x1 DiSEqC + 22KHz switches
Ariza 80cm: 89w, 97w, 103w, 110w / Fortec 80cm: 65w / Fortec 80cm: 119w, 125w / Ariza 80cm: 99w, 105w / Star Choice 75e: 87w, 91w, 97w / SC 60e: 30w / SC 60e: 83w, 87w, 95w / SC 60e: 123w / Ariza 24x18: 121w
Avatar: 2008 setup 61.5w, 72w or 74w (selectable), 79w, 87w
telescope
New Member
*
Offline Offline

Posts: 14


« Reply #4 on: June 18, 2019, 11:40:43 PM »

90s Hits is 7580 (was Sprints Main in your above list).
Adult Alternative is 7501 (was Backpages in your above list).

Searching on google will find more update lists at other FTA sites.

I have been using the Mood (formerly muzak) website for quite a while.

Sweet, thanks for the info!
Logged
Hyper
ADMIN
Administrator
LFTA Legend
*****
Offline Offline

Posts: 15434


They call me Heat Miser


« Reply #5 on: June 19, 2019, 11:14:57 AM »

Thank you, thank you.

I have edited the list in post 1
Logged

My son Evan, taken from his family and friends on March 26, 2010 at the age of 15. We love you and miss you Evan. We will see you again soon in heaven. I miss you son. You were the best son a dad could have. I am so proud of you. Save a place for me.
Hyper
ADMIN
Administrator
LFTA Legend
*****
Offline Offline

Posts: 15434


They call me Heat Miser


« Reply #6 on: July 10, 2019, 10:29:39 PM »

If you own a GEOSATpro HDVR3500, you can get these channels here:

http://legalfreetoair.com/index.php?topic=50147.0



 shocked
Logged

My son Evan, taken from his family and friends on March 26, 2010 at the age of 15. We love you and miss you Evan. We will see you again soon in heaven. I miss you son. You were the best son a dad could have. I am so proud of you. Save a place for me.
telescope
New Member
*
Offline Offline

Posts: 14


« Reply #7 on: November 26, 2019, 05:44:34 PM »

Not sure how useful this info is, but here's a dump of the active channels. I believe there is a method of matching the APID to the channel by inspecting some XML files hosted somewhere, but I can't remember where I saw that.
Code:
145    Stream #0:0[0x91]: Audio: mp2 ([4][0][0][0] / 0x0004), 48000 Hz, stereo, s16p, 128 kb/s
4900    Stream #0:20[0x1324]: Audio: mp2 ([4][0][0][0] / 0x0004), 48000 Hz, mono, s16p, 64 kb/s
5417    Stream #0:63[0x1529]: Audio: mp2 ([4][0][0][0] / 0x0004), 48000 Hz, stereo, s16p, 160 kb/s
7522    Stream #0:1[0x1d62]: Audio: mp2, 32000 Hz, mono, s16p, 64 kb/s
7548    Stream #0:3[0x1d7c]: Audio: mp2, 32000 Hz, mono, s16p, 64 kb/s
7533    Stream #0:4[0x1d6d]: Audio: mp2, 32000 Hz, mono, s16p, 64 kb/s
7531    Stream #0:5[0x1d6b]: Audio: mp2, 32000 Hz, mono, s16p, 64 kb/s
7577    Stream #0:6[0x1d99]: Audio: mp2, 32000 Hz, mono, s16p, 64 kb/s
7551    Stream #0:9[0x1d7f]: Audio: mp2, 32000 Hz, mono, s16p, 64 kb/s
7527    Stream #0:10[0x1d67]: Audio: mp2, 32000 Hz, mono, s16p, 64 kb/s
7502    Stream #0:11[0x1d4e]: Audio: mp2, 32000 Hz, mono, s16p, 64 kb/s
7561    Stream #0:14[0x1d89]: Audio: mp2, 32000 Hz, mono, s16p, 64 kb/s
7588    Stream #0:15[0x1da4]: Audio: mp2, 32000 Hz, mono, s16p, 64 kb/s
7525    Stream #0:16[0x1d65]: Audio: mp2, 32000 Hz, mono, s16p, 64 kb/s
7578    Stream #0:18[0x1d9a]: Audio: mp2, 32000 Hz, mono, s16p, 64 kb/s
7528    Stream #0:19[0x1d68]: Audio: mp2, 32000 Hz, mono, s16p, 64 kb/s
7503    Stream #0:21[0x1d4f]: Audio: mp2, 32000 Hz, mono, s16p, 64 kb/s
7559    Stream #0:22[0x1d87]: Audio: mp2, 32000 Hz, mono, s16p, 64 kb/s
7523    Stream #0:23[0x1d63]: Audio: mp2, 32000 Hz, mono, s16p, 64 kb/s
7568    Stream #0:24[0x1d90]: Audio: mp2, 32000 Hz, mono, s16p, 64 kb/s
7585    Stream #0:25[0x1da1]: Audio: mp2, 32000 Hz, mono, s16p, 64 kb/s
7554    Stream #0:26[0x1d82]: Audio: mp2, 32000 Hz, mono, s16p, 64 kb/s
7562    Stream #0:27[0x1d8a]: Audio: mp2, 32000 Hz, mono, s16p, 64 kb/s
7569    Stream #0:28[0x1d91]: Audio: mp2, 32000 Hz, mono, s16p, 64 kb/s
7556    Stream #0:29[0x1d84]: Audio: mp2, 32000 Hz, mono, s16p, 64 kb/s
7583    Stream #0:30[0x1d9f]: Audio: mp2, 32000 Hz, mono, s16p, 64 kb/s
7526    Stream #0:32[0x1d66]: Audio: mp2, 32000 Hz, mono, s16p, 64 kb/s
7507    Stream #0:33[0x1d53]: Audio: mp2, 32000 Hz, mono, s16p, 64 kb/s
7589    Stream #0:34[0x1da5]: Audio: mp2, 32000 Hz, mono, s16p, 64 kb/s
7555    Stream #0:36[0x1d83]: Audio: mp2, 32000 Hz, mono, s16p, 64 kb/s
7524    Stream #0:37[0x1d64]: Audio: mp2, 32000 Hz, mono, s16p, 64 kb/s
7536    Stream #0:38[0x1d70]: Audio: mp2, 32000 Hz, mono, s16p, 64 kb/s
7560    Stream #0:39[0x1d88]: Audio: mp2, 32000 Hz, mono, s16p, 64 kb/s
7552    Stream #0:41[0x1d80]: Audio: mp2, 32000 Hz, mono, s16p, 64 kb/s
7581    Stream #0:42[0x1d9d]: Audio: mp2, 32000 Hz, mono, s16p, 64 kb/s
7584    Stream #0:43[0x1da0]: Audio: mp2, 32000 Hz, mono, s16p, 64 kb/s
7557    Stream #0:44[0x1d85]: Audio: mp2, 32000 Hz, mono, s16p, 64 kb/s
7508    Stream #0:45[0x1d54]: Audio: mp2, 32000 Hz, mono, s16p, 64 kb/s
7511    Stream #0:46[0x1d57]: Audio: mp2, 32000 Hz, mono, s16p, 64 kb/s
7500    Stream #0:47[0x1d4c]: Audio: mp2, 32000 Hz, mono, s16p, 64 kb/s
7537    Stream #0:48[0x1d71]: Audio: mp2, 32000 Hz, mono, s16p, 64 kb/s
7565    Stream #0:49[0x1d8d]: Audio: mp2, 32000 Hz, mono, s16p, 64 kb/s
7514    Stream #0:50[0x1d5a]: Audio: mp2, 32000 Hz, mono, s16p, 64 kb/s
7567    Stream #0:51[0x1d8f]: Audio: mp2, 32000 Hz, mono, s16p, 64 kb/s
7582    Stream #0:52[0x1d9e]: Audio: mp2, 32000 Hz, mono, s16p, 64 kb/s
7501    Stream #0:53[0x1d4d]: Audio: mp2, 32000 Hz, mono, s16p, 64 kb/s
7553    Stream #0:54[0x1d81]: Audio: mp2, 32000 Hz, mono, s16p, 64 kb/s
7563    Stream #0:55[0x1d8b]: Audio: mp2, 32000 Hz, mono, s16p, 64 kb/s
7518    Stream #0:56[0x1d5e]: Audio: mp2, 32000 Hz, mono, s16p, 64 kb/s
7570    Stream #0:57[0x1d92]: Audio: mp2, 32000 Hz, mono, s16p, 64 kb/s
7513    Stream #0:58[0x1d59]: Audio: mp2, 32000 Hz, mono, s16p, 64 kb/s
7579    Stream #0:59[0x1d9b]: Audio: mp2, 32000 Hz, mono, s16p, 64 kb/s
7566    Stream #0:60[0x1d8e]: Audio: mp2, 32000 Hz, mono, s16p, 64 kb/s
7512    Stream #0:61[0x1d58]: Audio: mp2, 32000 Hz, mono, s16p, 64 kb/s
7515    Stream #0:62[0x1d5b]: Audio: mp2, 32000 Hz, mono, s16p, 64 kb/s
7564    Stream #0:64[0x1d8c]: Audio: mp2, 32000 Hz, mono, s16p, 64 kb/s
7593    Stream #0:65[0x1da9]: Audio: mp2, 32000 Hz, mono, s16p, 64 kb/s
7519    Stream #0:66[0x1d5f]: Audio: mp2, 32000 Hz, mono, s16p, 64 kb/s
7571    Stream #0:67[0x1d93]: Audio: mp2, 32000 Hz, mono, s16p, 64 kb/s
7505    Stream #0:68[0x1d51]: Audio: mp2, 32000 Hz, mono, s16p, 64 kb/s
7541    Stream #0:69[0x1d75]: Audio: mp2, 32000 Hz, mono, s16p, 64 kb/s
7580    Stream #0:70[0x1d9c]: Audio: mp2, 32000 Hz, mono, s16p, 64 kb/s
7558    Stream #0:71[0x1d86]: Audio: mp2, 32000 Hz, mono, s16p, 64 kb/s
7594    Stream #0:72[0x1daa]: Audio: mp2, 32000 Hz, mono, s16p, 64 kb/s
7545    Stream #0:73[0x1d79]: Audio: mp2, 32000 Hz, mono, s16p, 64 kb/s
7506    Stream #0:74[0x1d52]: Audio: mp2, 32000 Hz, mono, s16p, 64 kb/s
7549    Stream #0:75[0x1d7d]: Audio: mp2, 32000 Hz, mono, s16p, 64 kb/s
7542    Stream #0:76[0x1d76]: Audio: mp2, 32000 Hz, mono, s16p, 64 kb/s
7540    Stream #0:77[0x1d74]: Audio: mp2, 32000 Hz, mono, s16p, 64 kb/s
7546    Stream #0:78[0x1d7a]: Audio: mp2, 32000 Hz, mono, s16p, 64 kb/s
7760    Stream #0:79[0x1e50]: Audio: mp2, 32000 Hz, mono, s16p, 56 kb/s
7534    Stream #0:80[0x1d6e]: Audio: mp2, 32000 Hz, mono, s16p, 64 kb/s
7543    Stream #0:81[0x1d77]: Audio: mp2, 32000 Hz, mono, s16p, 64 kb/s
7538    Stream #0:82[0x1d72]: Audio: mp2, 32000 Hz, mono, s16p, 64 kb/s
7590    Stream #0:83[0x1da6]: Audio: mp2, 32000 Hz, mono, s16p, 64 kb/s
7535    Stream #0:84[0x1d6f]: Audio: mp2, 32000 Hz, mono, s16p, 64 kb/s
7516    Stream #0:85[0x1d5c]: Audio: mp2, 32000 Hz, mono, s16p, 64 kb/s
7498    Stream #0:87[0x1d4a]: Audio: mp2, 32000 Hz, mono, s16p, 64 kb/s
7572    Stream #0:88[0x1d94]: Audio: mp2, 32000 Hz, mono, s16p, 64 kb/s
7496    Stream #0:89[0x1d48]: Audio: mp2, 32000 Hz, mono, s16p, 64 kb/s
7574    Stream #0:90[0x1d96]: Audio: mp2, 32000 Hz, mono, s16p, 64 kb/s
7544    Stream #0:91[0x1d78]: Audio: mp2, 32000 Hz, mono, s16p, 64 kb/s
7539    Stream #0:92[0x1d73]: Audio: mp2, 32000 Hz, mono, s16p, 64 kb/s
7591    Stream #0:93[0x1da7]: Audio: mp2, 32000 Hz, mono, s16p, 64 kb/s
7586    Stream #0:94[0x1da2]: Audio: mp2, 32000 Hz, mono, s16p, 64 kb/s
7520    Stream #0:95[0x1d60]: Audio: mp2, 32000 Hz, mono, s16p, 64 kb/s
7509    Stream #0:96[0x1d55]: Audio: mp2, 32000 Hz, mono, s16p, 64 kb/s
7517    Stream #0:97[0x1d5d]: Audio: mp2, 32000 Hz, mono, s16p, 64 kb/s
7499    Stream #0:98[0x1d4b]: Audio: mp2, 32000 Hz, mono, s16p, 64 kb/s
7573    Stream #0:99[0x1d95]: Audio: mp2, 32000 Hz, mono, s16p, 64 kb/s
7529    Stream #0:100[0x1d69]: Audio: mp2, 32000 Hz, mono, s16p, 64 kb/s
7497    Stream #0:101[0x1d49]: Audio: mp2, 32000 Hz, mono, s16p, 64 kb/s
7532    Stream #0:102[0x1d6c]: Audio: mp2, 32000 Hz, mono, s16p, 64 kb/s
7575    Stream #0:103[0x1d97]: Audio: mp2, 32000 Hz, mono, s16p, 64 kb/s
7504    Stream #0:104[0x1d50]: Audio: mp2, 32000 Hz, mono, s16p, 64 kb/s
7587    Stream #0:105[0x1da3]: Audio: mp2, 32000 Hz, mono, s16p, 64 kb/s
7521    Stream #0:106[0x1d61]: Audio: mp2, 32000 Hz, mono, s16p, 64 kb/s
7547    Stream #0:107[0x1d7b]: Audio: mp2, 32000 Hz, mono, s16p, 64 kb/s
7550    Stream #0:108[0x1d7e]: Audio: mp2, 32000 Hz, mono, s16p, 64 kb/s
7510    Stream #0:109[0x1d56]: Audio: mp2, 32000 Hz, mono, s16p, 64 kb/s
7576    Stream #0:110[0x1d98]: Audio: mp2, 32000 Hz, mono, s16p, 64 kb/s
7530    Stream #0:111[0x1d6a]: Audio: mp2, 32000 Hz, mono, s16p, 64 kb/s
7748    Stream #0:112[0x1e44]: Unknown: none
7750    Stream #0:113[0x1e46]: Unknown: none
I never realized how low quality the channels were, but it makes sense given how they have to support those legacy installations.
Logged
elbandido
Visiting Mod
LFTA Legend
*****
Offline Offline

Posts: 1947



« Reply #8 on: November 26, 2019, 06:02:32 PM »

Have you tried logging the 136 channel mux on DVB-S 11709H / 1302 / 1/2? This Is Not a Muzak mux.
Logged
telescope
New Member
*
Offline Offline

Posts: 14


« Reply #9 on: November 26, 2019, 09:07:57 PM »

Have you tried logging the 136 channel mux on DVB-S 11709H / 1302 / 1/2? This Is Not a Muzak mux.
Unsurprisingly, no lock with my receiver. What is it?
Logged
elbandido
Visiting Mod
LFTA Legend
*****
Offline Offline

Posts: 1947



« Reply #10 on: November 27, 2019, 12:05:14 AM »

See attached.xml file.
Logged
mopat
Super Member
*****
Offline Offline

Posts: 268


« Reply #11 on: November 28, 2019, 12:20:54 PM »

Scanned in all radio channels on 11709H1302, quality good BUT

no sound

What's the secret??
Logged

WS9036 dish, Spitfire Lnb, Powermax SG9120 rotor, .
10' solid dish with C1-PLL, TBS6982 card running SmartDVB
elbandido
Visiting Mod
LFTA Legend
*****
Offline Offline

Posts: 1947



« Reply #12 on: November 28, 2019, 02:25:26 PM »

The 11709 mux is feeds, and lots of times only a few channels are active. You will have some idea when a particular feed may be active by the channel name. Also, many fta receivers will scan these channels, but cannot receive the audio. The same can be said for the KUSC mux at 91w ku.
Logged
LEGALFREETOAIR.COM
   

 Logged
Pages: [1]   Go Up
  Print  
 
Jump to:  

Powered by MySQL Powered by PHP Powered by SMF 1.1.21 | SMF © 2015, Simple Machines Valid XHTML 1.0! Valid CSS!